#TITLE:Ω;
#SUBTITLE:-]Better stepz[-;
#ARTIST:Omega and RevenG;
#TITLETRANSLIT:O M E G A;
#SUBTITLETRANSLIT:;
#ARTISTTRANSLIT:;
#CREDIT:;
#BANNER:COOLBANAR.png;
#BACKGROUND:TEHBGOFL33T.png;
#LYRICSPATH:;
#CDTITLE:fishyicon.png;
#MUSIC:OMEGA.mp3;
#OFFSET:0.000;
#SAMPLESTART:25.000;
#SAMPLELENGTH:11.980;
#SELECTABLE:YES;
#BPMS:0.000=359.999,58.000=284.999,59.250=83.259,59.500=108.479,59.750=144.839,60.000=148.119,60.250=179.279,60.500=184.719,60.750=204.339,61.000=250.480,61.250=267.699,61.500=270.780,61.750=285.719,62.000=316.499,62.250=323.319,62.500=332.779,62.750=341.719,63.250=342.998,79.500=347.998,95.500=349.778,111.000=347.998,126.500=332.998,188.500=359.998,309.000=249.999,320.250=150.159,320.750=204.179,321.500=275.259,323.000=311.459,323.750=348.898,324.500=420.938,327.000=359.998,455.333=272.698,455.375=269.998,458.500=268.938,461.500=268.478,462.500=267.798,463.500=267.398,464.500=267.618,465.500=266.198,467.000=265.558,469.500=264.658,473.500=262.818,479.500=260.398,488.500=258.498,490.500=257.618;
#STOPS:190.500=0.200
,193.000=0.300
,194.500=0.100
,196.000=0.400
,217.000=0.240
,219.500=0.240
,221.000=0.100
,222.500=0.400
,320.250=4.000
,329.500=0.100
,332.000=0.100
,334.500=0.100
,337.000=0.100
,339.500=0.100
,359.500=0.100
,362.000=0.100
;
#BGCHANGES:;
// cache tags:
#FIRSTBEAT:33.000;
#LASTBEAT:503.000;
#SONGFILENAME:Songs/Music V.I.P ^_^/O M E G A/AFROMAX 240.sm;
#HASMUSIC:1;
#HASBANNER:1;
#MUSICLENGTH:97.044;
// end cache tags

//---------------dance-single - Hard----------------
#NOTES:
     dance-single:
     Hard:
     Hard:
     15:
     0.949,1.000,0.598,0.536,0.072,535.000,58.000,52.000,0.000,1.000:

0000
0000
0000
0000
,
0000
0000
0000
0000
,
0000
0000
0000
0000
,
0000
0000
0000
0000
,
0000
0000
0000
0000
,
0000
0000
0000
0000
,
0000
0000
0000
0000
,
0000
0000
0000
0000
,
0000
0000
1000
0010
1000
0010
1000
0000
,
0010
0001
0010
0001
0010
0000
0000
0000
,
1001
0000
0000
1000
0100
0001
0010
1000
,
0000
1000
0010
0001
0100
1000
0000
0000
,
0000
0110
0000
1000
0001
1000
0001
1000
,
0000
0010
0100
0010
0100
0010
0000
0000
,
1001
0000
0000
0000
0000
0000
0000
0000
1000
0000
0001
1000
0000
0002
0000
0000
,
0000
0000
0000
0000
0000
0000
0000
0000
0000
0000
0000
0000
0000
0003
1000
0000
,
0000
0100
0000
0010
0001
0000
0001
0010
,
0000
0100
0000
1000
0100
0000
0100
0010
,
0000
0010
0000
0010
0001
0000
0001
1010
,
0000
1001
0000
0011
0000
0000
0000
0001
,
0000
0001
0000
0001
0010
0000
0010
0100
,
0000
0100
0000
0100
1000
0000
1000
0001
,
0000
0001
0000
0001
0010
0000
0010
1001
,
0000
0110
0000
0011
0000
0000
0000
1000
,
0000
0100
0000
0001
0010
0000
0010
0001
,
0000
0100
0000
1000
0100
0000
0001
0100
,
0000
0100
0000
0010
1000
0000
0001
1010
,
0000
0101
0000
1001
0000
0000
0000
0001
,
0000
1000
0000
0001
1000
0000
0010
0100
,
0000
0010
0000
0100
1000
0000
1000
0001
,
0000
1000
0000
0001
0010
0000
0010
1100
,
0000
0101
0000
0101
0000
0000
1010
0000
,
0101
0000
1010
0000
0000
0000
0000
1001
,
0000
0000
0000
1001
0000
0000
0000
0101
,
0000
0110
0000
1010
0000
1010
0000
0000
,
0110
0000
1001
0110
,
1001
0000
0000
0000
0000
0110
0000
0000
,
0000
0011
0000
0000
0000
0101
0000
0011
,
0000
1100
0000
1010
0000
0000
0000
1001
,
0000
0000
0000
1100
0000
0001
0010
0100
,
0000
0000
0011
0000
,
1010
0000
0000
0000
0001
1000
0001
0000
,
0101
1001
0000
0110
,
0000
0000
0011
0000
1000
0100
0001
0000
,
0000
0000
0011
0000
,
0011
0000
0000
1000
0100
0001
0000
1001
,
0000
2002
0000
0000
0000
3003
0000
0000
,
0000
1000
0100
1000
0100
1000
0001
0100
,
0001
0100
0001
1000
0100
1000
0001
0010
,
0001
1000
0100
0001
0000
1000
0100
0010
,
0100
0000
0100
0001
0100
1000
0100
0000
,
0001
1000
0001
0000
1000
0001
1000
0000
,
0100
0010
0100
0000
0100
0010
0100
0000
,
0100
0010
0100
0000
0000
0000
1000
0100
,
1000
0100
1000
0001
0100
0001
0100
0001
,
1000
0100
1000
0001
0010
0001
1000
0100
,
0001
0000
0001
0010
1000
0000
1000
0100
,
0010
0000
0010
0001
0010
0100
0000
0010
,
0100
0010
0000
0010
0100
0010
0000
0000
,
0000
0000
0000
0001
1000
0000
1000
0001
,
0000
0000
1000
0200
,
0001
0310
2000
0010
,
3001
0000
0001
0000
0001
0010
0200
0000
,
1300
0000
0002
0000
0020
0030
0203
1300
,
0001
0000
0001
0000
0001
0010
0000
0200
,
1000
0000
0001
0300
0020
0000
0130
0000
,
0002
0000
0103
0000
0100
0000
0100
0010
,
0000
0010
0001
0000
0001
0100
0000
0100
,
0010
0000
0010
1000
0000
1000
0000
1000
,
0000
1000
0100
0000
0100
0010
0000
0010
,
0001
0000
0001
0010
0000
0010
0000
0010
,
0000
0010
0100
0000
0100
0010
0000
0010
,
1000
0000
1000
0001
0000
0001
0000
0001
,
0000
0001
0100
0000
0100
0010
0000
0010
,
1000
0000
1000
0010
0000
0010
0001
0000
,
0001
0000
0001
0010
0000
0010
0100
0000
,
0100
0001
0000
0001
1000
0000
1000
0000
,
1000
2000
3200
0320
,
0032
0203
0320
2030
,
3001
0000
0000
0000
0000
0000
0000
0000
0000
0000
0000
0000
0000
0000
0000
0000
0000
0000
0022
0000
0000
0000
0000
0000
0000
0000
0000
0000
0000
0000
0000
0000
0000
0000
0000
0000
0000
0000
0000
0000
0000
0000
0033
0000
0000
0000
0000
0000
0000
0000
0000
0000
0000
0000
0000
0000
0000
0000
0000
0000
0000
0000
0000
0000
2200
0000
0000
0000
0000
0000
0000
0000
0000
0000
0000
0000
0000
0000
0000
0000
0000
0000
0000
0000
0000
0000
0000
0000
3300
0000
0000
0000
0000
0000
0000
0000
,
0000
2002
0000
0000
0000
0000
0000
0000
0000
0000
0000
0000
0000
0000
0000
0000
,
0000
0000
0000
3003
0000
0000
0000
1000
,
0010
1000
0010
1000
0001
0100
0001
0100
,
0001
1000
0100
0001
0100
1000
0001
0100
,
1000
0100
0001
0100
0010
0100
0010
0100
,
0001
1000
0001
1000
0001
0000
1000
0001
,
1000
0001
1000
0000
0001
1000
0001
0100
,
0001
0000
1000
0001
0000
0000
0001
1000
,
0000
0000
1000
0010
0000
0000
0010
0100
,
0000
0010
0000
1000
0010
1000
0010
1000
,
0001
0100
0001
0100
0001
1000
0010
1000
,
0001
0010
0100
1000
0000
1000
0100
0001
,
0010
0000
0000
0010
0100
0000
0000
0100
,
1000
0000
0000
1000
0100
0001
0100
1000
,
0010
0001
0010
1000
0100
0001
0000
0000
,
0001
0100
0010
1000
0100
0010
0001
0010
,
1000
0100
0010
0001
1000
0010
0100
0001
,
0010
0100
0002
0000
0000
0003
0010
0000
,
0000
0020
0000
0000
0000
0130
0000
0000
,
2000
0100
3001
0200
,
0001
0000
2000
0300
3002
0000
0000
0023
,
0000
0000
0230
0000
0000
0020
0000
0300
,
0001
0000
1000
0030
0002
0000
0000
0000
,
0213
0000
0000
0000
0300
0002
0000
0000
,
0000
0000
0000
0013
0000
0110
0000
0000
,
1001
0000
0000
0000
0000
0000
0000
0000
0000
1100
0000
0000
0000
0000
0000
1020
0000
0000
0000
0000
0000
0000
0100
0000
,
0000
0000
1030
0200
0000
0000
0020
0000
,
0300
0000
0001
0030
0000
0000
0002
0000
,
0000
0000
0103
0000
0000
0020
0000
0000
,
0230
0000
0000
2300
0000
3000
0021
0000
,
0000
0000
0100
0000
0000
0000
0000
0000
0000
1030
0000
0000
0000
0000
0000
0000
0000
0000
2100
0000
0000
0000
0000
0000
,
0000
0000
0100
3000
0001
0000
0120
0000
,
0000
0000
0000
0130
0000
0000
0000
2000
,
0000
0000
0000
0000
3200
0000
0000
0000
0000
0302
0000
0003
0000
0000
1000
0000
,
0010
1000
0010
0000
0000
0010
0001
0010
,
0001
0000
0000
0100
0010
0100
0010
0000
,
0000
0010
0001
1000
0100
0000
0000
1000
,
0001
0100
0010
0000
0000
0001
1000
0010
,
0100
0000
0000
1000
0100
0001
0010
0000
,
0000
0001
0100
0010
1000
0000
0000
1000
,
0010
0100
0001
0000
0000
0001
0010
0100
,
1000
0000
0000
1000
0010
0001
0100
0000
,
0000
0000
0000
0100
0000
0000
0001
0000
0000
0010
0000
0000
1000
0000
0000
0000
0000
0000
0000
0000
0000
0000
0000
1000
,
0000
0000
1000
0000
0000
1000
0000
0000
0000
0000
0000
0000
0000
0000
0001
0000
0000
0001
0000
0000
0001
0000
0000
0000
,
0000
0000
0000
1000
0100
0010
0001
0100
,
0010
2002
0000
0000
0000
0000
3003
0000
,;

//---------------dance-single - Copied from Hard----------------
#NOTES:
     dance-single:
     Copied from Hard:
     Challenge:
     15:
     1.000,1.000,1.000,1.000,0.062,579.000,149.000,97.000,0.000,27.000:

0000
0000
0000
0000
,
0000
0000
0000
0000
,
0000
0000
0000
0000
,
0000
0000
0000
0000
,
0000
0000
0000
0000
,
0000
0000
0000
0000
,
0000
0000
0000
0000
,
0000
0000
0000
0000
,
0000
0000
0010
0100
1000
0001
1001
0000
,
0100
0001
1000
0010
1001
0000
0000
0000
,
1001
0000
0000
0010
1000
0001
0010
0101
,
0000
0100
0001
0010
0100
1001
0000
0000
,
0000
0011
0000
0010
0001
0100
0001
1001
,
0000
0000
0100
0010
0100
0110
0000
0000
,
1001
0000
0000
0000
0000
0000
0000
0000
0010
0000
1000
0001
0000
0100
0000
1000
,
0000
0000
1100
0000
0000
0000
0000
0000
0110
0000
0000
0000
0000
0000
0000
0000
0000
1001
0000
0000
0000
0000
0000
0000
0000
0000
0000
0000
1100
0000
0000
0000
,
0000
0100
0000
0010
0011
0000
0001
0010
,
0000
0100
0000
1000
0110
0000
0010
0100
,
0000
0001
0000
0100
0001
0000
0001
1100
,
0000
0011
0000
1100
0000
0000
0000
0001
,
0000
0100
0000
0010
1100
0000
0001
0010
,
0000
0001
0000
0010
1100
0000
1000
0100
,
0000
0010
0000
0100
0010
0000
0110
1001
,
0000
0110
0000
0011
0000
0000
0000
0110
,
0000
1000
0000
0100
0011
0000
0001
0010
,
0000
0100
0000
1000
0011
0000
0001
0001
,
0000
0100
0000
0010
1100
0000
1010
1010
,
0000
0101
0000
1001
0000
0000
0000
0011
,
0000
1000
0000
0001
1100
0000
0010
0100
,
0000
0010
0000
0100
1001
0000
1000
0001
,
0000
1000
0000
0001
0010
0000
0110
0110
,
0000
1001
0000
1001
0000
0000
0011
0000
,
0101
0000
0110
0000
0000
0000
0000
0110
,
0000
0010
0000
0110
0000
0001
0010
0100
,
0000
0101
0000
0110
0000
0110
0000
0000
,
0110
0000
0000
0000
0000
0000
1001
0000
0100
0000
0010
0000
,
1001
0000
0000
0000
0000
0011
0000
0000
,
0000
1010
0000
0010
0001
0100
0000
1001
,
0000
0101
0000
0011
0000
0000
0000
1001
,
0000
0000
0000
1100
0000
1000
0001
0010
,
0000
0000
1010
0000
,
0011
0000
0000
0000
1000
0010
0100
0000
,
0101
1001
0000
0110
,
0000
0000
0011
0000
1000
0100
0001
0000
,
0000
1001
0000
0100
0011
0000
0000
0000
,
0011
0000
0000
1000
0010
0100
0000
0110
,
0110
2002
0000
0000
0000
3003
0000
0000
,
0000
1000
0010
0001
0100
1000
0001
1000
,
0010
0001
0100
0010
0100
1000
0100
0010
,
0001
1000
0100
0001
0000
1000
0100
0010
,
0100
0010
0100
0001
0100
1000
0100
0010
,
0001
1000
0001
0010
1000
0001
1000
0000
,
1000
0010
1000
0000
0001
0100
0001
0000
,
0010
0100
0010
0000
0000
0000
0001
0010
,
1000
0010
0001
1000
0100
0001
0100
1000
,
0010
0100
1000
0001
0010
0100
1000
0100
,
0001
0010
0001
0010
1000
0100
1000
0100
,
0010
0100
0010
0001
0010
0100
0001
0010
,
0100
0010
0100
0010
0100
0010
0000
0000
,
0000
0000
0000
1100
0011
0000
0011
1100
,
0000
0000
1000
0200
,
0002
0313
2100
0020
,
3001
0000
0031
0000
0001
0020
0200
0030
,
2300
0000
3002
0000
0020
0030
0203
2300
,
0001
0000
3001
0000
0001
0020
0000
0230
,
1000
0000
0001
0300
0021
0000
0130
0000
,
0102
0000
2103
0000
0100
0000
3100
0010
,
0000
0010
0001
0000
0001
2100
0000
3100
,
0012
0000
0013
2000
0000
3100
0000
0120
,
0000
0031
2000
0000
3200
0010
0300
0010
,
0002
0000
1003
0210
0000
0310
0000
1002
,
0000
1003
0100
0000
0002
0200
0003
1300
,
0012
0000
1003
0100
0000
0010
0000
1000
,
0000
2001
0100
0000
3100
0010
0000
0010
,
1000
0000
1000
0012
0000
0013
0200
0000
,
1000
0300
0001
2010
0000
3010
0001
0000
,
2100
0001
0000
3001
1000
0000
1000
0000
,
1000
0102
0213
2301
,
3102
1203
0321
2130
,
3011
0000
0000
0000
0000
0000
0000
0000
0000
0000
0000
0000
0000
0000
0000
0000
0000
0000
0202
0000
0000
0000
0000
0000
0000
0000
0000
0000
0000
0000
0000
0000
0000
0000
0000
0000
0000
0000
0000
0000
0000
0000
0303
0000
0000
0000
0000
0000
0000
0000
0000
0000
0000
0000
0000
0000
0000
0000
0000
0000
0000
0000
0000
0000
2020
0000
0000
0000
0000
0000
0000
0000
0000
0000
0000
0000
0000
0000
0000
0000
0000
0000
0000
0000
0030
0000
0000
0000
3000
0000
0000
0000
0000
0000
0000
0000
,
0000
2002
0000
0000
0000
0000
0000
0000
0000
0000
0000
0000
0000
0000
0000
0000
,
0000
0000
0000
3003
0000
0000
0000
1000
,
0001
1000
0001
1000
0010
0100
0010
0100
,
0010
1000
0100
0001
0010
1000
0001
0010
,
1000
0100
0001
1000
0010
1000
0001
1000
,
0001
0010
0001
0010
0100
1000
0001
0100
,
0010
0000
0001
0000
0001
0010
1000
0001
,
0010
0100
0000
0010
1000
0100
1000
0100
,
0000
0100
0010
0001
0010
0001
0010
1000
,
0100
0001
0000
1000
0010
0001
0010
1000
,
0001
0100
1000
0100
0001
0000
0010
0100
,
1000
0100
0010
0100
0000
0100
0001
0010
,
0100
0000
0010
0001
0000
1000
0100
0000
,
0000
0000
0001
0100
0010
1000
0100
0010
,
0001
0100
0010
1000
0100
0010
0000
0010
,
0001
0100
1000
0010
0100
0001
0010
0100
,
1000
0001
0100
0010
1000
0001
0010
0100
,
1000
0010
0100
0012
0000
0000
0010
0000
,
0013
0000
0000
2100
0000
0000
0010
3002
,
0000
0010
0203
0300
1020
0000
0200
0001
,
0030
0000
0301
0000
2001
0000
0000
3210
,
0000
0000
1320
0000
0000
0132
0000
0010
,
0003
0020
0100
0000
0030
2001
0000
3100
,
0000
0010
0001
0010
0000
2100
0000
0001
,
3010
0000
0000
0101
0000
1001
0000
0000
,
0011
0000
0000
0110
0000
1020
0000
0000
,
0002
0030
1000
0010
0003
2010
0000
0200
,
0020
3000
0031
0300
0001
0120
0000
2000
,
0000
3031
0000
0000
0000
0012
0000
0000
,
0213
0000
0000
1320
0000
0000
1230
0000
,
2000
0300
0000
3001
0000
0000
1200
0000
,
0001
0000
0310
1000
0010
0000
0201
0010
,
0000
0020
0301
0000
0130
0000
1200
0000
,
0000
0312
0000
0000
1023
0000
0000
1030
,
0001
1000
0101
0000
0000
0010
1000
0001
,
0110
0000
0000
0001
0010
0100
1010
0000
,
0000
1100
0020
0001
1130
0000
0000
0011
,
0200
1000
0311
0000
0000
0210
1000
0302
,
0013
0000
0000
1200
0010
0302
1003
0000
,
0000
0021
0130
2000
3001
0000
0000
0011
,
0200
0010
1301
0000
0000
1200
0302
0013
,
0200
0000
0300
1020
0100
0031
1100
0000
,
0000
0120
1000
0131
1001
0000
0000
0120
,
0000
0000
0100
0000
0000
0000
0130
0000
0000
0000
0000
0000
0000
0000
0000
2100
0000
0000
0000
0000
0100
0000
0000
0000
,
3100
0000
0000
0101
1010
0000
0011
1100
,
0110
2002
0000
0000
0000
0000
3003
0000
,;
